返回列表 发新帖

左右半宽Samsung 3D Demo - SMTown 3D蓝光原盘演示碟(推荐收藏精品)2011 【1.13GB】

[复制链接]

20

主题

51

帖子

288

积分

仗剑天涯

Rank: 3Rank: 3

积分
288
发表于 2021-11-23 14:40 | 显示全部楼层 | 阅读模式
原盘ISO h.265 10bit高画质压制
一共6个片段,百度云下载







General
Unique ID                      : 209939550262353054098647158691989992298 (0x9DF0E2FA96205758864484EDC866B36A)
Complete name                  : C:\Users\gigabyte\Desktop\Video\三星 3D演示片\SM_TOWN_CONCERT_3D.Title1002.mkv
Format                         : Matroska
Format version                 : Version 2
File size                      : 207 MiB
Duration                       : 5 min 22 s
Overall bit rate               : 5 393 kb/s
Movie name                     : SM_TOWN_CONCERT_3D.Title1002
Encoded date                   : UTC 2021-11-23 02:25:42
Writing application            : DVDFab 10.2.1.3
Writing library                : libebml v1.3.4 + libmatroska v1.4.5

Video
ID                             : 1
Format                         : HEVC
Format/Info                    : High Efficiency Video Coding
Format profile                 : Main 10@L4@Main
Codec ID                       : V_MPEGH/ISO/HEVC
Duration                       : 5 min 21 s
Bit rate                       : 4 765 kb/s
Width                          : 1 920 pixels
Height                         : 1 080 pixels
Display aspect ratio           : 16:9
Frame rate mode                : Constant
Frame rate                     : 23.976 (24000/1001) FPS
Color space                    : YUV
Chroma subsampling             : 4:2:0
Bit depth                      : 10 bits
Bits/(Pixel*Frame)             : 0.096
Stream size                    : 183 MiB (88%)
Default                        : Yes
Forced                         : No
Color range                    : Limited
Color primaries                : BT.709
Transfer characteristics       : BT.709
Matrix coefficients            : BT.709

Audio
ID                             : 2
Format                         : AC-3
Format/Info                    : Audio Coding 3
Commercial name                : Dolby Digital
Codec ID                       : A_AC3
Duration                       : 5 min 22 s
Bit rate mode                  : Constant
Bit rate                       : 640 kb/s
Channel(s)                     : 6 channels
Channel layout                 : L R C LFE Ls Rs
Sampling rate                  : 48.0 kHz
Frame rate                     : 31.250 FPS (1536 SPF)
Compression mode               : Lossy
Stream size                    : 24.6 MiB (12%)
Language                       : English
Service kind                   : Complete Main
Default                        : Yes
Forced                         : No
游客,本内容需要支付 6积分 才能浏览   购买


本帖子中包含更多资源

您需要 登录 才可以下载或查看,没有帐号?立即注册

x
回复

使用道具 举报

0

主题

57

帖子

68

积分

初涉江湖

Rank: 1

积分
68
发表于 2021-11-23 15:49 | 显示全部楼层
3D好的真不多啊
回复

使用道具 举报

0

主题

897

帖子

751

积分

江湖少侠

Rank: 4

积分
751
发表于 2021-11-23 19:18 | 显示全部楼层
谢谢楼主分享!
回复

使用道具 举报

38

主题

1196

帖子

2387

积分

英雄豪杰

Rank: 6Rank: 6

积分
2387
发表于 2021-11-23 20:46 | 显示全部楼层
支持发布
回复

使用道具 举报

0

主题

714

帖子

145

积分

无名之辈

Rank: 2

积分
145
发表于 2021-11-24 07:33 | 显示全部楼层
谢楼主分享
回复

使用道具 举报

0

主题

28

帖子

45

积分

初涉江湖

Rank: 1

积分
45
发表于 2021-11-25 08:44 | 显示全部楼层
内容重复,实际上只有3首歌。而原盘是有9首歌的。能发全吗
回复

使用道具 举报

0

主题

2701

帖子

2684

积分

英雄豪杰

Rank: 6Rank: 6

积分
2684
发表于 2021-11-25 08:46 | 显示全部楼层
谢谢分享 谢谢分享
回复

使用道具 举报

4

主题

588

帖子

16

积分

初涉江湖

Rank: 1

积分
16
发表于 2021-11-26 09:01 | 显示全部楼层
谢谢楼主分享
回复

使用道具 举报

发表回复

您需要登录后才可以回帖 登录 | 立即注册

本版积分规则

郑重声明:本站所有资源均由网友收集转载自网络公开渠道,仅供测试宽带使用,禁用商业用途或盈利,请在下载后24小时内删除;

请大家支持正版尊重版权,所有资源源版权归版权方所有,观看或阅读请到相应机构购买正版资,本站不制作、不存储任何音视频内容;

如有任何内容无意间侵犯了您的权益,请邮件通知 admin@zgxyi.com ,收到邮件后本站会及时删除并向您表示最深的歉意。

快速回复 返回顶部 返回列表