返回列表 发新帖

[2011] [大陆] [古装] [全集] [阿里云盘][甄嬛传][76集全][国语中字][MKV][4K 2160p][顶级收藏版][无删减无水印]

[复制链接]

2071

主题

2151

帖子

14万

积分

版主

Rank: 7Rank: 7Rank: 7

积分
147493
发表于 2021-9-29 12:35 | 显示全部楼层 | 阅读模式


译  名 Empresses in The Palace / 甄嬛传
◎片  名 后宫·甄嬛传
◎年  代 2011
◎产  地 中国大陆
◎类  别 剧情 / 古装
◎语  言 汉语普通话
◎上映日期 2011-11-17(中国大陆)
◎集  数 76
◎片  长 45分钟
◎导  演 郑晓龙 Xiaolong Zheng
◎编  剧 流潋紫 Xuelan Wu / 王小平 Xiaoping Wang
◎主  演 孙俪 Li Sun
       陈建斌 Jianbin Chen
       蔡少芬 Ada Choi
       李东学 Ethan Li
       蒋欣 Xin Jiang
       陶昕然 Xinran Tao



◎标  签 宫斗 | 古装 | 电视剧 | 宫廷 | 经典 | 小说改编 | 大陆 | 中国

◎简  介

  时为满清雍正元年,结束了血腥的夺位之争,新的君主(陈建斌 饰)继位,国泰民安,政治清明,但在一片祥和的表象之下,一股暗流蠢蠢欲动。尤其后宫,华妃(蒋欣 饰)与皇后(蔡少芬 饰)分庭抗礼,各方势力裹挟其中,凶险异常。在太后(刘雪华 饰)的主持下,一场盛大的选秀拉开帷幕。以 此为机缘,美丽善良的女孩——大理寺少卿甄远道长女甄嬛(孙俪 饰)意外得到雍正的赏识,从此步入皇宫。在皇后和华妃两方势力的夹击下,甄嬛小心周旋,忍辱负重,命悬一线。她不得不用自己的智慧保护自己,又一次次被卷入残酷的宫闱斗争之中……
  本片根据流潋紫的同名小说原著改编。

◎获奖情况

  第26届中国电视金鹰奖  (2012)
  优秀电视剧

  第18届上海电视节白玉兰奖  (2012)
  电视连续剧最佳导演 郑晓龙
  电视连续剧最佳女演员(提名) 孙俪







  1. Video

  2. ID                             : 1

  3. Format                         : AVC

  4. Format/Info                    : Advanced Video Codec

  5. Format profile                 : High@L5.1

  6. Format settings                : CABAC / 4 Ref Frames

  7. Format settings, CABAC         : Yes

  8. Format settings, Reference fra : 4 frames

  9. Codec ID                       : avc1

  10. Codec ID/Info                  : Advanced Video Coding

  11. Duration                       : 45 min 3 s

  12. Bit rate                       : 8 006 kb/s

  13. Width                          : 3 840 pixels

  14. Height                         : 2 160 pixels

  15. Display aspect ratio           : 16:9

  16. Frame rate mode                : Constant

  17. Frame rate                     : 25.000 FPS

  18. Color space                    : YUV

  19. Chroma subsampling             : 4:2:0

  20. Bit depth                      : 8 bits

  21. Scan type                      : Progressive

  22. Bits/(Pixel*Frame)             : 0.039

  23. Stream size                    : 2.52 GiB (97%)

  24. Writing library                : Provided by x264  :: H.264/MPEG-4 AVC codec -V 1.6.07

  25. Color range                    : Limited

  26. Color primaries                : BT.709

  27. Transfer characteristics       : BT.709

  28. Matrix coefficients            : BT.709

  29. Codec configuration box        : avcC



  30. Audio

  31. ID                             : 2

  32. Format                         : AAC LC

  33. Format/Info                    : Advanced Audio Codec Low Complexity

  34. Codec ID                       : mp4a-40-2

  35. Duration                       : 45 min 4 s

  36. Bit rate mode                  : Variable

  37. Bit rate                       : 258 kb/s

  38. Channel(s)                     : 1 channel

  39. Channel layout                 : C

  40. Sampling rate                  : 44.1 kHz

  41. Frame rate                     : 43.066 FPS (1024 SPF)

  42. Compression mode               : Lossy

  43. Stream size                    : 82.5 MiB (3%)

  44. Default                        : Yes

  45. Alternate group                : 1

复制代码



我用阿里云盘分享了[甄嬛传][76集全][国语中字][MKV][4K 2160p][顶级收藏版][无删减无水印]」,你可以不限速下载(现在免费注册会员)

复制这段内容打开「阿里云盘」 即可获取

链接:https://www.aliyundrive.com/s/BaK1hEAC3Uk



提取码:
游客,如果您要查看本帖隐藏内容请回复

本帖子中包含更多资源

您需要 登录 才可以下载或查看,没有帐号?立即注册

x
已有2人评分 积分 理由
917087936 + 1
baichen + 1

查看全部评分 总评分: 积分 +2 

回复

使用道具 举报

0

主题

742

帖子

299

积分

仗剑天涯

Rank: 3Rank: 3

积分
299
发表于 2021-9-29 12:48 | 显示全部楼层
楼主辛苦,多谢分享!
回复

使用道具 举报

1

主题

1470

帖子

5389

积分

笑傲江湖

Rank: 9Rank: 9Rank: 9

积分
5389
QQ
发表于 2021-9-29 12:58 来自手机  | 显示全部楼层
晓龙导演还没学会大胆启用新人演员饰演经典历史人物
回复

使用道具 举报

0

主题

24

帖子

53

积分

初涉江湖

Rank: 1

积分
53
发表于 2021-9-29 13:07 | 显示全部楼层
谢谢楼主分享好东西
回复

使用道具 举报

0

主题

215

帖子

443

积分

仗剑天涯

Rank: 3Rank: 3

积分
443
发表于 2021-9-29 13:18 | 显示全部楼层
谢谢楼主分享
回复

使用道具 举报

0

主题

498

帖子

436

积分

仗剑天涯

Rank: 3Rank: 3

积分
436
发表于 2021-9-29 13:26 | 显示全部楼层
thank for sharing
回复

使用道具 举报

0

主题

852

帖子

862

积分

江湖少侠

Rank: 4

积分
862
发表于 2021-9-29 14:19 | 显示全部楼层
谢谢楼主分享
回复

使用道具 举报

0

主题

142

帖子

39

积分

初涉江湖

Rank: 1

积分
39
发表于 2021-9-29 14:23 | 显示全部楼层
是不是高建板能下载吗?
回复

使用道具 举报

307

主题

1161

帖子

3924

积分

人中龙凤

Rank: 7Rank: 7Rank: 7

积分
3924
发表于 2021-9-29 14:50 | 显示全部楼层
谢谢楼主分享了
回复

使用道具 举报

0

主题

656

帖子

784

积分

江湖少侠

Rank: 4

积分
784
发表于 2021-9-29 15:14 | 显示全部楼层
感谢分享
回复

使用道具 举报

发表回复

您需要登录后才可以回帖 登录 | 立即注册

本版积分规则

郑重声明:本站所有资源均由网友收集转载自网络公开渠道,仅供测试宽带使用,禁用商业用途或盈利,请在下载后24小时内删除;

请大家支持正版尊重版权,所有资源源版权归版权方所有,观看或阅读请到相应机构购买正版资,本站不制作、不存储任何音视频内容;

如有任何内容无意间侵犯了您的权益,请邮件通知 admin@zgxyi.com ,收到邮件后本站会及时删除并向您表示最深的歉意。

快速回复 返回顶部 返回列表